Fast and Furious 7 (2015) HDCAM READNFO x264 CPG torrent download locations

Sponsored
torrent.cd Fast and Furious 7 (2015) HDCAM READNFO x264 - CPG
movies - action
thepiratebay Details for Fast and Furious 7 (2015) HDCAM READNFO x264 - CPG
yourbittorrent Fast and Furious 7 (2015) HDCAM READNFO x264 - CPG
Movies
torrentfunk Fast and Furious 7 (2015) HDCAM READNFO x264 - CPG
Movies
TheTorrent.org Fast and Furious 7 (2015) HDCAM READNFO x264 CPG
Torrents storage

Torrent contents

Size: 1.49 GB

Hash: B72BDD7769107B14BCD9AC1FA0CF618BA625D63F

Torrent description(s)

  • isohunt.to
Fast and Furious 7 2015 HQCAM READNFO XVID.avi


NFO: FIRST 2 MINS IN iTALiAN AND LAST 15 MINS IN SAME DUE 
TO AUDIO ISSUE REST IN ENGLISH NOT THE BEST AUDIO BUT ALL THATS 
ABOUT........... SAMPLE INSIDE..



Format : AVI
Format/Info : Audio Video Interleave
Format profile : OpenDML
File size : 2.08 GiB
Duration : 2h 6mn
Overall bit rate : 2 340 Kbps
Writing application : Lavf53.24.2

Video
ID : 0
Format : xvid
Codec ID : xvid
Duration : 2h 6mn
Bit rate : 2 200 Kbps
Width : 720 pixels
Height : 336 pixels
Display aspect ratio : 2.143
Frame rate : 25.000 fps
Bits/(Pixel*Frame) : 0.364
Stream size : 1.95 GiB (94%)

Audio
ID : 1
Format : MPEG Audio
Format version : Version 1
Format profile : Layer 3
Mode : Joint stereo
Mode extension : MS Stereo
Codec ID : 55
Codec ID/Hint : MP3
Duration : 2h 6mn
Bit rate mode : Constant
Bit rate : 128 Kbps
Channel(s) : 2 channels
Sampling rate : 44.1 KHz
Compression mode : Lossy
Stream size : 116 MiB (5%)
Alignment : Aligned on interleaves
Interleave, duration : 26 ms (0.65 video frame)
Writing library : LAME3.98.4

Related torrents

Title
Size
Seeds
Peers
THE FAST AND FURIOUS Pentalogy in 'Movies'
6.25 GB
0
0
Fast and Furious 6 (2013) DVDRip_XviD.AC3 - PZMC in 'Movies'
511.75 MB
0
0
Fast and Furious. 6 .2O13. XviD in 'Movies'
702.09 MB
0
0
Fast and Furious 6 2013 DVDRip XviD-JESSY in 'Movies'
716.55 MB
0
0
Fast and Furious 6 XviD 2013 - sofix in 'Movies'
702.09 MB
0
0
Fast and Furious 6 2013 DVDRip XviD-BNDAC in 'Movies'
735.56 MB
0
0
Fast and Furious 6 2013 DVDRip XviD XAMX in 'Movies'
745.98 MB
0
0
Fast and Furious.6.BRRip.XviD.AC3-FLAWL3SS in 'Movies'
710.57 MB
0
0
Fast and Furious 6 2013 DVDRip XviD KERED in 'Movies'
745.98 MB
0
0
Fast and Furious 6 (2013)EXTENDED DVDRip XviD-COCAIN in 'Movies'
699.51 MB
0
0
Fast and Furious 6 (2013)DVDRip XviD AC3-3LT0N in 'Movies'
742.31 MB
0
0

Share